Journey Through Hardcore: Years 1995 to 2000, Part 2
Mixed by Samination
Mix Cover
Date recorded:2020-11-01
Format:FLAC
Size:461 MiB
Bitrate:1023 kbps
Length:1:02:59 (3779 seconds)
Speed:180 BPM
Genres:Happy Hardcore
Mix Description
Link to Mixcloud stream

The Mix is not readily available on the website just yet, but you can download the MP3 or FLAC version from this link:

Google Drive


If you still wish to download the mix from my website, the default link below will only work when "Server 2" is online. If you wish to download the mp3 version, this link should work all the time: http://samination.se/download/1/mp3/samination_hardcore-journey_1995-2000_part_2
Tracklist
01. Alas Smith & Sharkey - Truth
02. DJ Ham - Music's Hypnotizing (Exclusive Trance Core mix)
03. Marc Smith - Boom & Pow (Marc Smith's Boomin' remix)
04. Triple J - Follow The Sun (Force & Styles remix)
05. Vinylgroover & Trixxy - Expansions
06. Brisk & Vinylgroover - Smooth & Irresistible (ABH remix)
07. Brisk & Trixxy - Back To The Top (Original mix)
08. Storm & Herman - The Piano Track
09. Twist & Friendly - Hit n Run
10. Select - Ray Of Light
11. E-Logic - Run To Me (Brisk remix)
12. Dougal & TKM - Night Breeze
13. Storm & Phosphor - Sure Wont Be The Last
14. Select - Earth Trance
15. Brisk & Trixxy - Eye Opener
16. Brisk & Trixxy - Eye Opener (M-Project Powerstomp remix)
Streams
Downloads
| AudioDownload audio | HelpHelp Me! |
User Comments
#545 2021-02-20 10:56
Elfi: TITLE "(Title N.N.)"
FILE "samination_hardcore-journey_1995-2000_part_2.flac" FLAC
TRACK 01 AUDIO
TITLE "Truth"
PERFORMER "Alas Smith & Sharkey"
INDEX 01 00:00:00
TRACK 02 AUDIO
TITLE "Music's Hypnotizing (Exclusive Trance Core Mix)"
PERFORMER "DJ Ham"
INDEX 01 05:21:17
TRACK 03 AUDIO
TITLE "Follow The Sun (Force & Styles Remix)"
PERFORMER "Triple J"
INDEX 01 09:15:60
TRACK 04 AUDIO
TITLE "Expansions"
PERFORMER "Vinylgroover & Trixxy"
INDEX 01 15:18:27
TRACK 05 AUDIO
TITLE "Smooth & Irresistible (ABH Remix)"
PERFORMER "Brisk & Vinylgroover"
INDEX 01 20:06:29
TRACK 06 AUDIO
TITLE "Back To The Top (Original Mix)"
PERFORMER "Brisk & Trixxy"
INDEX 01 23:39:58
TRACK 07 AUDIO
TITLE "The Piano Track"
PERFORMER "Storm & Herman"
INDEX 01 27:34:27
TRACK 08 AUDIO
TITLE "Hit n Run"
PERFORMER "Twist & Friendly"
INDEX 01 32:30:66
TRACK 09 AUDIO
TITLE "Ray Of Light"
PERFORMER "Select"
INDEX 01 36:18:26
TRACK 10 AUDIO
TITLE " Run To Me (Brisk Remix)"
PERFORMER "E-Logic"
INDEX 01 41:03:08
TRACK 11 AUDIO
TITLE "Night Breeze"
PERFORMER "Dougal & TKM"
INDEX 01 45:08:32
TRACK 12 AUDIO
TITLE "Sure Wont Be The Last"
PERFORMER "Storm & Phosphor"
INDEX 01 50:06:50
TRACK 13 AUDIO
TITLE "Earth Trance"
PERFORMER "Select"
INDEX 01 54:56:67
TRACK 14 AUDIO
TITLE "Eye Opener"
PERFORMER "Brisk & Trixxy"
INDEX 01 59:02:15
TRACK 15 AUDIO
TITLE "Eye Opener (M-Project Powerstomp remix)"
PERFORMER "Brisk & Trixxy"
INDEX 01 61:10:11

Total Posts made: 1
Total Messages showing: 7
Rules & Guidelines
  • Name or Email/Website isn't needed to make a post, but would be nice to know who you are.
  • Smileys?.
Your Name/Nick handle:

Your Email/Website:

Your Message:

CAPTCHA: What's my DJ name?:

Show 7, All messages